djmharobin

djmharobin
  • +8801915826388
feed_small_icon email2

an edm based remixer

Sort By: Date | Popularity    Order: Descending

world of trance 35

September 20, 2014
Format : MPEG Audio File size : 75.6 MiB Duration : 1h 22mn Overall bit rate mode : Constant Overall bit rate : 128 Kbps Album : W O T Track name : WORLD OF TRANCE 35 Performer : DJ M H A ROBIN Genre : E D M Recorded date : 2014 Writing library : LAME3.99.5 Cover : Yes Cover type : Cover (front) Cover MIME : image/jpg Comment : Format : MPEG Audio / File size : 189 MiB / Duration : 1h 22mn / Overall bit rate mode : Constant / Overall bit rate : 320 Kbps / Album : W O T / Track name : world of trance 35 / Performer : DJ M H A ROBIN / Genre : E D M / Recorded date : 2014 / Writing library : LAME3.99.5 / Cover : Yes / Cover type : Cover (front) / Cover MIME : image/jpg / / Audio / Format : MPEG Audio / Format version : Version 1 / Format profile : Layer 3 / Mode : Joint stereo / Duration : 1h 22mn / Bit rate mode : Constant / Bit rate : 320 Kbps / Channel(s) : 2 channels / Sampling rate : 48.0 KHz / Compression mode : Lossy / Stream size : 188 MiB (100%) / Writing library : LAME3.99.5 / Audio Format : MPEG Audio Format version : Version 1 Format profile : Layer 3 Mode : Joint stereo Mode extension : MS Stereo Duration : 1h 22mn Bit rate mode : Constant Bit rate : 128 Kbps Channel(s) : 2 channels Sampling rate : 44.1 KHz Compression mode : Lossy Stream size : 75.3 MiB (100%) Writing library : LAME3.99.5
Listen   82:15


Profile managed by: DJMHAROBIN

 
-:-- / -:--
0